GreekTube.eu
Καλώς Όρισες
Login / Εγγραφη

  • 1:11:47 Νέο CHRISTMAS Deep House Party Live MIX by BOB DEEP   free download

    CHRISTMAS Deep House Party Live MIX by BOB DEEP free download

    by Panos Προστέθηκε 1 Προβολές / 0 Likes

    HRISTMAS Deep House Party Live MIX by BOB DEEP free downloadTRACKS LISTTRACK 01 AUDIO TITLE \"Faster\" PERFORMER \"01 Dj Marlon\" INDEX 01 00:00:00 TRACK 02 AUDIO TITLE \"Grapevine - YouTube\" PERFORMER \"02 Nayio Bitz\" INDEX 01 04:14:00 TRACK 03 AUDIO T

  • 10:05 Νέο Παναθηναϊκός - Νταρουσάφακα 75-67 | Στιγμιότυπα - 12η Αγωνιστική Euroleague (14/12/2018)

    Παναθηναϊκός - Νταρουσάφακα 75-67 | Στιγμιότυπα - 12η Αγωνιστική Euroleague (14/12/2018)

    by Admin Προστέθηκε 6 Προβολές / 0 Likes

    Με τους Μήτογλου και Καλάθη να πραγματοποιούν τρομερές εμφάνισή του για τους πράσινους , ο Παναθηναϊκός που δεν έπεισε στο παρκέ του ΟΑΚΑ κατάφερε να πάρει τη νίκη κόντρα στη Νταρουσάφακα με σκορ 75-67 για την 12η αγωνιστική της Euroleague. Οι Αρχικές Πεν

  • 02:04 Νέο AEK F.C. - Οι Αετοί της Ελλάδας στην Λισαβόνα

    AEK F.C. - Οι Αετοί της Ελλάδας στην Λισαβόνα

    by Admin Προστέθηκε 4 Προβολές / 0 Likes

    Στην πρωτεύουσα της Πορτογαλίας, την Λισαβόνα, ταξίδεψε η ΑΕΚ για το τελευταίο φετινό της παιχνίδι στη φάση των ομίλων του UEFA Champions League. Η Ένωση θα αντιμετωπίσει την Τετάρτη στο στάδιο Da Luz την Μπενφίκα, με στόχο να ρίξει με θετικό τρόπο αυλαία

  • 01:00 Νέο Το κορεό των φιλάθλων μας! / Olympiacos fans' choreography!

    Το κορεό των φιλάθλων μας! / Olympiacos fans' choreography!

    by Admin Προστέθηκε 6 Προβολές / 0 Likes

    Δείτε το εντυπωσιακό κορεό των φιλάθλων του Ολυμπιακού στο ματς με την Μίλαν.

  • 01:37 Νέο Ο Βασίλης Τοροσίδης στο Olympiacos TV! / Vasilis Torosidis on Olympiacos TV!

    Ο Βασίλης Τοροσίδης στο Olympiacos TV! / Vasilis Torosidis on Olympiacos TV!

    by Admin Προστέθηκε 1 Προβολές / 0 Likes

    Δείτε τις δηλώσεις του ακραίου αμυντικού της ομάδας μας στην κάμερα του Olympiacos TV, μετά το τέλος της αναμέτρησης με τη Μίλαν.

  • 16:24 Νέο Συνέντευξη Τύπου κ. Μαρτίνς (Ολυμπιακός - Μίλαν) / Press Conference (Olympiacos - AC Milan)

    Συνέντευξη Τύπου κ. Μαρτίνς (Ολυμπιακός - Μίλαν) / Press Conference (Olympiacos - AC Milan)

    by Admin Προστέθηκε 5 Προβολές / 0 Likes

    Δείτε μέσω της κάμερας του Olympiacos TV, τι είπε ο κ. Πέδρο Μαρτίνς, στη συνέντευξη Τύπου, μετά το τέλος του αγώνα με Μίλαν στο "Γ. Καραϊσκάκης" και τη μεγάλη νίκη και πρόκριση στην επόμενη φάση του UEFA Europa League.

  • 01:52 Νέο Η ομιλία του κ. Μαρινάκη στους παίκτες! / Mr. Marinakis’ speech to the team!

    Η ομιλία του κ. Μαρινάκη στους παίκτες! / Mr. Marinakis’ speech to the team!

    by Admin Προστέθηκε 5 Προβολές / 0 Likes

    Η ομιλία του κ. Μαρινάκη στους παίκτες μετά τη νίκη-πρόκριση επί της Μίλαν! / Mr. Marinakis’ speech to the team after our winning game against AC Milan!

  • 02:39 Νέο Shopping Star- Catwalk Αθηνάς -  επ.415 «Χριστουγεννιάτικο πάρτι στο γραφείο»

    Shopping Star- Catwalk Αθηνάς - επ.415 «Χριστουγεννιάτικο πάρτι στο γραφείο»

    by Admin Προστέθηκε 5 Προβολές / 0 Likes

    Δείτε τις επιλογές της Αθηνάς Δείτε τα δελτία και τις εκπομπές του Star στο http://www.star.gr/tv/ Πατήστε "Subscribe" στο startvgr, για να έχετε άμεση ενημέρωση για τις νέες εκπομπές και δελτία που ανεβαίνουν στο YouTube

  • 00:17 Νέο Shopping star - tip - επ.415 «Χριστουγεννιάτικο πάρτι στο γραφείο»

    Shopping star - tip - επ.415 «Χριστουγεννιάτικο πάρτι στο γραφείο»

    by Admin Προστέθηκε 6 Προβολές / 0 Likes

    Δείτε τα δελτία και τις εκπομπές του Star στο http://www.star.gr/tv/ Πατήστε "Subscribe" στο startvgr, για να έχετε άμεση ενημέρωση για τις νέες εκπομπές και δελτία που ανεβαίνουν στο YouTube

  • 2:09:42 Νέο Στη Φωλιά των Κου Κου - 14.12.2018

    Στη Φωλιά των Κου Κου - 14.12.2018

    by Admin Προστέθηκε 4 Προβολές / 0 Likes

    Δείτε τα επεισόδια εδώ: http://www.star.gr/tv/shows/sti-folia-ton-kou-kou/ Με την Κατερίνα Καραβάτου και τον Κρατερό Κατσούλη «Η φωλιά των Κου Κου» επιστρέφει για 2η χρονιά με χιουμοριστική διάθεση, έτοιμη να ανατρέψει ακόμη περισσότερο το παιχνίδι και υπ

  • 21:19 Νέο "The muBET Show" - 14.12.2018

    "The muBET Show" - 14.12.2018

    by Admin Προστέθηκε 5 Προβολές / 0 Likes

    Η επιτυχημένη στοιχηματική εκπομπή των μεγάλων αποδόσεων, με τον Θοδωρή Ζαρμακούπη και τον Νίκο Σκαρή, είναι κοντά σας κάθε Παρασκευή στις 23:30 στo www.star.gr/webtv . Mαζί βλέπουμε όλη την αθλητική επικαιρότητα με... άλλο μάτι και δίνουμε αναλυτικές στο

  • 37:54 Νέο Keep Running - 14.12.2018

    Keep Running - 14.12.2018

    by Admin Προστέθηκε 5 Προβολές / 0 Likes

    Η μοναδική εκπομπή στην ελληνική τηλεόραση για όσους αγαπούν το τρέξιμο, τον Μαραθώνιο και τους αγώνες δρόμου. Με όλα τα δρομικά νέα της εβδομάδας, με συνεντεύξεις πρωταθλητών, αθλούμενων, προπονητών, διατροφολόγων καθώς και με όλες τις ελληνικές συμμετοχ

  • 03:12 Νέο Ματθίλδη Μαγγίρα: «Από μικρή δε μπορούσα να κοιμηθώ γιατί σκεφτόμουν...»

    Ματθίλδη Μαγγίρα: «Από μικρή δε μπορούσα να κοιμηθώ γιατί σκεφτόμουν...»

    by Admin Προστέθηκε 6 Προβολές / 0 Likes

    Η Ματθίλδη Μαγγίρα έχει πολύ συγκεκριμένες απόψεις για τη ζωή και το σύμπαν! «Γεννήθηκα σε ένα σπίτι με ηλεκτρικό ρεύμα, με ψυγείο, με πλυντήριο και δεν έχω ζήσει αλλιώς για να δω τι μου αρέσει, να το επιλέξω και μετά να είμαι ελεύθερη» είπε «Στη Φωλιά τω

  • 03:30 Νέο Eλένη Φουρέιρα: Η πρόταση από το Open και το "Όχι" της

    Eλένη Φουρέιρα: Η πρόταση από το Open και το "Όχι" της

    by Admin Προστέθηκε 5 Προβολές / 0 Likes

    Ήταν να τη δούμε στο La Banda, αλλά μετά την... ακύρωση της προβολής του, θέλησαν να την "κρατήσουν" μεν στο δυναμικό τους, αλλά να της δώσουν νέο ρόλο σε άλλο λαμπερό επίσης show. Ο λόγος για την Ελένη Φουρέιρα δέχτηκε ακόμα μια πρόταση από τον τηλεοπτικ

  • 03:39 Νέο Πόσων χρόνων είναι Καραβάτου, Κατσούλης και άλλοι διάσημοι

    Πόσων χρόνων είναι Καραβάτου, Κατσούλης και άλλοι διάσημοι

    by Admin Προστέθηκε 6 Προβολές / 0 Likes

    Οι διάσημοι λένε την ηλικία τους on camera! Η Μαντώ Γαστεράτου είναι 30 ετών, η Δέσποινα Καμπούρη είναι 36, ο Μελέτης Ηλίας είναι 38, η Βάσω Λασκαράκη είναι 39, ο Νίκος Μουτσινάς είναι 41, ο Παναγιώτης Πετράκης είναι 42, η Έλενα Χριστοπούλου του GNTM είνα

  • 02:39 Νέο Γιάννης Στάνκογλου: Θα υποδυθεί τον Γιάννη Βαρουφάκη στην ταινία του Γαβρά;

    Γιάννης Στάνκογλου: Θα υποδυθεί τον Γιάννη Βαρουφάκη στην ταινία του Γαβρά;

    by Admin Προστέθηκε 5 Προβολές / 0 Likes

    «No comments» είπε αρχικά ο Γιάννης Στάνκογλου στην ερώτηση των δημοσιογράφων για το αν θα υποδυθεί τον Γιάνη Βαρουφάκη στη νέα ταινία του Κώστα Γαβρά. Μάλιστα, ο ηθοποιός είπε: «Ρωτήστε τον ίδιο τον Κώστα Γαβρά». Ο μεγάλος Έλληνας σκηνοθέτης Κώστας Γαβρά

  • 13:50 Νέο Στρογγυλή Σφολιατόπιτα με Μοσχάρι και Καπνιστό Τυρί από τον Λάμπρο Βακιάρο!

    Στρογγυλή Σφολιατόπιτα με Μοσχάρι και Καπνιστό Τυρί από τον Λάμπρο Βακιάρο!

    by Admin Προστέθηκε 6 Προβολές / 0 Likes

    Την όρεξη των τηλεθεατών άνοιξε ο Λάμπρος Βακιάρος το πρωί της Παρασκευής 14 Δεκεμβρίου. Ο σεφ έφτιαξε πεντανόστιμη στρογγυλή σφολιατόπιτα με μοσχάρι και καπνιστό Τυρί . Δείτε τα δελτία και τις εκπομπές του Star στο http://www.star.gr/tv/ Πατήστε "Subscri

  • 1:30:10 Νέο "Αλήθειες με τη Ζήνα" - 14.12.2018

    "Αλήθειες με τη Ζήνα" - 14.12.2018

    by Admin Προστέθηκε 4 Προβολές / 0 Likes

    Δείτε τα επεισόδια: http://www.star.gr/tv/shows/alitheies-me-ti-zina/ Με την Ζήνα Κουτσελίνη Θέματα σημερινής εκπομπής: Αποφυλακίζεται ο γνωστός ενεχυροδανειστής και οι άλλοι επτά κατηγορούμενοι για την υπόθεση του φερόμενου κυκλώματος λαθρεμπορίας χρυσού

  • 04:05 Νέο Ο Μένιος Φουρθιώτης "ξεσπάθωσε": "Είναι ντροπή της Καινούργιου..."

    Ο Μένιος Φουρθιώτης "ξεσπάθωσε": "Είναι ντροπή της Καινούργιου..."

    by Admin Προστέθηκε 5 Προβολές / 0 Likes

    Μετά το διαζύγιο με τo Open έδινε το "παρών" μόνο μέσα από τους προσωπικούς του λογαριασμούς στα social media. Ο λόγος για τον Μένιο Φουρθιώτη, ο οποίος το μεσημέρι της Παρασκευής έκανε τη δική του επιστροφή στην τηλεόραση, μιας και ήταν καλεσμένος στην ε

  • 40:30 Νέο Star - Ειδήσεις - 14.12.2018 - μεσημέρι

    Star - Ειδήσεις - 14.12.2018 - μεσημέρι

    by Admin Προστέθηκε 5 Προβολές / 0 Likes

    Με την Ελένη Τσαγκά Δείτε τα δελτία και τις εκπομπές του Star στο http://www.star.gr/tv/ Πατήστε "Subscribe" στο startvgr, για να έχετε άμεση ενημέρωση για τις νέες εκπομπές και δελτία που ανεβαίνουν στο YouTube

  • 06:20 Νέο Star - Ειδήσεις - 14.12.2018 - Δελτίο Ειδήσεων στη Νοηματική!

    Star - Ειδήσεις - 14.12.2018 - Δελτίο Ειδήσεων στη Νοηματική!

    by Admin Προστέθηκε 2 Προβολές / 0 Likes

    Με την Ελένη Τσαγκά. Μαζί της η Ανδρονίκη Ξανθοπούλου, διερμηνέας νοηματικής γλώσσας Δείτε τα δελτία και τις εκπομπές του Star στο http://www.star.gr/tv/ Πατήστε "Subscribe" στο startvgr, για να έχετε άμεση ενημέρωση για τις νέες εκπομπές και δελτία που α

  • 01:46 Νέο Κριός: «Προσπαθήστε να είστε συμπονετικοί με τους άλλους»

    Κριός: «Προσπαθήστε να είστε συμπονετικοί με τους άλλους»

    by Admin Προστέθηκε 6 Προβολές / 0 Likes

    H Σελήνη θα βρίσκεται στους Ιχθύες σήμερα και αύριο και αυτό δημιουργεί ένα πιο συναισθηματικό υπόβαθρο, ενώ η όψη της με τον Ποσειδώνα μας κάνει να ονειροπολούμε! Η Άση Μπήλιου έκανε τις αστρολογικές της προβλέψεις «Στη Φωλιά των Κου Κου» για το πώς θα ε

  • 02:03 Νέο Ταύρος: «Η Κυριακή είναι μέρα χαλάρωσης»

    Ταύρος: «Η Κυριακή είναι μέρα χαλάρωσης»

    by Admin Προστέθηκε 4 Προβολές / 0 Likes

    H Σελήνη θα βρίσκεται στους Ιχθύες σήμερα και αύριο και αυτό δημιουργεί ένα πιο συναισθηματικό υπόβαθρο, ενώ η όψη της με τον Ποσειδώνα μας κάνει να ονειροπολούμε! Η Άση Μπήλιου έκανε τις αστρολογικές της προβλέψεις «Στη Φωλιά των Κου Κου» για το πώς θα ε

  • 01:51 Νέο Δίδυμοι: «Δεύτερες σκέψεις για θέματα της καριέρας»

    Δίδυμοι: «Δεύτερες σκέψεις για θέματα της καριέρας»

    by Admin Προστέθηκε 4 Προβολές / 0 Likes

    H Σελήνη θα βρίσκεται στους Ιχθύες σήμερα και αύριο και αυτό δημιουργεί ένα πιο συναισθηματικό υπόβαθρο, ενώ η όψη της με τον Ποσειδώνα μας κάνει να ονειροπολούμε! Η Άση Μπήλιου έκανε τις αστρολογικές της προβλέψεις «Στη Φωλιά των Κου Κου» για το πώς θα ε

  • 02:39 Νέο Shopping Star- Catwalk Αθηνάς -  επ.415 «Χριστουγεννιάτικο πάρτι στο γραφείο»

    Shopping Star- Catwalk Αθηνάς - επ.415 «Χριστουγεννιάτικο πάρτι στο γραφείο»

    by Admin Προστέθηκε 5 Προβολές / 0 Likes

    Δείτε τις επιλογές της Αθηνάς Δείτε τα δελτία και τις εκπομπές του Star στο http://www.star.gr/tv/ Πατήστε "Subscribe" στο startvgr, για να έχετε άμεση ενημέρωση για τις νέες εκπομπές και δελτία που ανεβαίνουν στο YouTube

  • 00:17 Νέο Shopping star - tip - επ.415 «Χριστουγεννιάτικο πάρτι στο γραφείο»

    Shopping star - tip - επ.415 «Χριστουγεννιάτικο πάρτι στο γραφείο»

    by Admin Προστέθηκε 6 Προβολές / 0 Likes

    Δείτε τα δελτία και τις εκπομπές του Star στο http://www.star.gr/tv/ Πατήστε "Subscribe" στο startvgr, για να έχετε άμεση ενημέρωση για τις νέες εκπομπές και δελτία που ανεβαίνουν στο YouTube

  • 2:09:42 Νέο Στη Φωλιά των Κου Κου - 14.12.2018

    Στη Φωλιά των Κου Κου - 14.12.2018

    by Admin Προστέθηκε 4 Προβολές / 0 Likes

    Δείτε τα επεισόδια εδώ: http://www.star.gr/tv/shows/sti-folia-ton-kou-kou/ Με την Κατερίνα Καραβάτου και τον Κρατερό Κατσούλη «Η φωλιά των Κου Κου» επιστρέφει για 2η χρονιά με χιουμοριστική διάθεση, έτοιμη να ανατρέψει ακόμη περισσότερο το παιχνίδι και υπ

  • 21:19 Νέο "The muBET Show" - 14.12.2018

    "The muBET Show" - 14.12.2018

    by Admin Προστέθηκε 5 Προβολές / 0 Likes

    Η επιτυχημένη στοιχηματική εκπομπή των μεγάλων αποδόσεων, με τον Θοδωρή Ζαρμακούπη και τον Νίκο Σκαρή, είναι κοντά σας κάθε Παρασκευή στις 23:30 στo www.star.gr/webtv . Mαζί βλέπουμε όλη την αθλητική επικαιρότητα με... άλλο μάτι και δίνουμε αναλυτικές στο

  • 37:54 Νέο Keep Running - 14.12.2018

    Keep Running - 14.12.2018

    by Admin Προστέθηκε 5 Προβολές / 0 Likes

    Η μοναδική εκπομπή στην ελληνική τηλεόραση για όσους αγαπούν το τρέξιμο, τον Μαραθώνιο και τους αγώνες δρόμου. Με όλα τα δρομικά νέα της εβδομάδας, με συνεντεύξεις πρωταθλητών, αθλούμενων, προπονητών, διατροφολόγων καθώς και με όλες τις ελληνικές συμμετοχ

  • 03:12 Νέο Ματθίλδη Μαγγίρα: «Από μικρή δε μπορούσα να κοιμηθώ γιατί σκεφτόμουν...»

    Ματθίλδη Μαγγίρα: «Από μικρή δε μπορούσα να κοιμηθώ γιατί σκεφτόμουν...»

    by Admin Προστέθηκε 6 Προβολές / 0 Likes

    Η Ματθίλδη Μαγγίρα έχει πολύ συγκεκριμένες απόψεις για τη ζωή και το σύμπαν! «Γεννήθηκα σε ένα σπίτι με ηλεκτρικό ρεύμα, με ψυγείο, με πλυντήριο και δεν έχω ζήσει αλλιώς για να δω τι μου αρέσει, να το επιλέξω και μετά να είμαι ελεύθερη» είπε «Στη Φωλιά τω

  • 03:30 Νέο Eλένη Φουρέιρα: Η πρόταση από το Open και το "Όχι" της

    Eλένη Φουρέιρα: Η πρόταση από το Open και το "Όχι" της

    by Admin Προστέθηκε 5 Προβολές / 0 Likes

    Ήταν να τη δούμε στο La Banda, αλλά μετά την... ακύρωση της προβολής του, θέλησαν να την "κρατήσουν" μεν στο δυναμικό τους, αλλά να της δώσουν νέο ρόλο σε άλλο λαμπερό επίσης show. Ο λόγος για την Ελένη Φουρέιρα δέχτηκε ακόμα μια πρόταση από τον τηλεοπτικ

  • 03:39 Νέο Πόσων χρόνων είναι Καραβάτου, Κατσούλης και άλλοι διάσημοι

    Πόσων χρόνων είναι Καραβάτου, Κατσούλης και άλλοι διάσημοι

    by Admin Προστέθηκε 6 Προβολές / 0 Likes

    Οι διάσημοι λένε την ηλικία τους on camera! Η Μαντώ Γαστεράτου είναι 30 ετών, η Δέσποινα Καμπούρη είναι 36, ο Μελέτης Ηλίας είναι 38, η Βάσω Λασκαράκη είναι 39, ο Νίκος Μουτσινάς είναι 41, ο Παναγιώτης Πετράκης είναι 42, η Έλενα Χριστοπούλου του GNTM είνα

  • 10:05 Νέο Παναθηναϊκός - Νταρουσάφακα 75-67 | Στιγμιότυπα - 12η Αγωνιστική Euroleague (14/12/2018)

    Παναθηναϊκός - Νταρουσάφακα 75-67 | Στιγμιότυπα - 12η Αγωνιστική Euroleague (14/12/2018)

    by Admin Προστέθηκε 6 Προβολές / 0 Likes

    Με τους Μήτογλου και Καλάθη να πραγματοποιούν τρομερές εμφάνισή του για τους πράσινους , ο Παναθηναϊκός που δεν έπεισε στο παρκέ του ΟΑΚΑ κατάφερε να πάρει τη νίκη κόντρα στη Νταρουσάφακα με σκορ 75-67 για την 12η αγωνιστική της Euroleague. Οι Αρχικές Πεν

  • 02:04 Νέο AEK F.C. - Οι Αετοί της Ελλάδας στην Λισαβόνα

    AEK F.C. - Οι Αετοί της Ελλάδας στην Λισαβόνα

    by Admin Προστέθηκε 4 Προβολές / 0 Likes

    Στην πρωτεύουσα της Πορτογαλίας, την Λισαβόνα, ταξίδεψε η ΑΕΚ για το τελευταίο φετινό της παιχνίδι στη φάση των ομίλων του UEFA Champions League. Η Ένωση θα αντιμετωπίσει την Τετάρτη στο στάδιο Da Luz την Μπενφίκα, με στόχο να ρίξει με θετικό τρόπο αυλαία

  • 01:00 Νέο Το κορεό των φιλάθλων μας! / Olympiacos fans' choreography!

    Το κορεό των φιλάθλων μας! / Olympiacos fans' choreography!

    by Admin Προστέθηκε 6 Προβολές / 0 Likes

    Δείτε το εντυπωσιακό κορεό των φιλάθλων του Ολυμπιακού στο ματς με την Μίλαν.

  • 01:37 Νέο Ο Βασίλης Τοροσίδης στο Olympiacos TV! / Vasilis Torosidis on Olympiacos TV!

    Ο Βασίλης Τοροσίδης στο Olympiacos TV! / Vasilis Torosidis on Olympiacos TV!

    by Admin Προστέθηκε 1 Προβολές / 0 Likes

    Δείτε τις δηλώσεις του ακραίου αμυντικού της ομάδας μας στην κάμερα του Olympiacos TV, μετά το τέλος της αναμέτρησης με τη Μίλαν.

  • 16:24 Νέο Συνέντευξη Τύπου κ. Μαρτίνς (Ολυμπιακός - Μίλαν) / Press Conference (Olympiacos - AC Milan)

    Συνέντευξη Τύπου κ. Μαρτίνς (Ολυμπιακός - Μίλαν) / Press Conference (Olympiacos - AC Milan)

    by Admin Προστέθηκε 5 Προβολές / 0 Likes

    Δείτε μέσω της κάμερας του Olympiacos TV, τι είπε ο κ. Πέδρο Μαρτίνς, στη συνέντευξη Τύπου, μετά το τέλος του αγώνα με Μίλαν στο "Γ. Καραϊσκάκης" και τη μεγάλη νίκη και πρόκριση στην επόμενη φάση του UEFA Europa League.

  • 01:52 Νέο Η ομιλία του κ. Μαρινάκη στους παίκτες! / Mr. Marinakis’ speech to the team!

    Η ομιλία του κ. Μαρινάκη στους παίκτες! / Mr. Marinakis’ speech to the team!

    by Admin Προστέθηκε 5 Προβολές / 0 Likes

    Η ομιλία του κ. Μαρινάκη στους παίκτες μετά τη νίκη-πρόκριση επί της Μίλαν! / Mr. Marinakis’ speech to the team after our winning game against AC Milan!

  • 00:31 Νέο The NBA Lights Up Christmas Day

    The NBA Lights Up Christmas Day

    by Admin Προστέθηκε 7 Προβολές / 0 Likes

    The NBA on Christmas Day is back. Check out the game's best and brightest as they light up the holidays during this special time of year. Watch Tim Hardaway Jr., Giannis Antetokounmpo, Damian Lillard, Donovan Mitchell, James Harden, Russell Westbrook, Ben

  • 05:47 Νέο Every Bucket From Anthony Davis' Back-To-Back 40-Point Games!

    Every Bucket From Anthony Davis' Back-To-Back 40-Point Games!

    by Admin Προστέθηκε 5 Προβολές / 0 Likes

    Check out all of Anthony Davis' buckets from his back-to-back 40-point performances. Subscribe to the NBA: http://bit.ly/2rCglzY For news, stories, highlights and more, go to our official website at http://www.nba.com Get NBA LEAGUE PASS: http://www.nba.c

  • 02:38 Νέο In Theaters Now: Mortal Engines, The Mule, Spider-Man: Into the Spider-Verse | Weekend Ticket

    In Theaters Now: Mortal Engines, The Mule, Spider-Man: Into the Spider-Verse | Weekend Ticket

    by Admin Προστέθηκε 6 Προβολές / 0 Likes

    Assassins on rolling cities, a veteran drug runner for the Sinaloa cartel, and a whole mess o' Spider People! Are you seeing 'Mortal Engines', 'The Mule', or 'Spider-Man: Into the Spider-Verse' this weekend? ► Buy Your Tickets Now: https://www.fandango.co

  • 01:11 Νέο Downton Abbey Teaser Trailer #1 (2019) | Movieclips Trailers

    Downton Abbey Teaser Trailer #1 (2019) | Movieclips Trailers

    by Admin Προστέθηκε 8 Προβολές / 0 Likes

    Check out the official Downton Abbey Teaser Trailer starring Maggie Smith! Let us know what you think in the comments below. ► Buy Tickets to Downton Abbey: https://www.fandango.com/downton-abbey-2019-216217/movie-overview?cmp=MCYT_YouTube_Desc Want to be

  • 02:32 Νέο The Mustang Trailer #1 (2019) | Movieclips Trailers

    The Mustang Trailer #1 (2019) | Movieclips Trailers

    by Admin Προστέθηκε 8 Προβολές / 0 Likes

    Check out the official The Mustang trailer starring Matthias Schoenaerts! Let us know what you think in the comments below. ► Buy Tickets to The Mustang: https://www.fandango.com/the-mustang-216127/movie-overview?cmp=MCYT_YouTube_Desc Want to be notified

  • 01:47 Νέο ΠΕΡΙΜΕΝΟΝΤΑΣ ΤΗ ΝΟΝΑ - TRAILER

    ΠΕΡΙΜΕΝΟΝΤΑΣ ΤΗ ΝΟΝΑ - TRAILER

    by Admin Προστέθηκε 6 Προβολές / 0 Likes

    17 Ιανουαρίου 2019 στα VILLAGE CINEMAS Ηρακλής και Αγησίλαος, δύο επιστήθιοι φίλοι, εγκαταλείπουν την Αθήνα και ξεκινούν για τη Νάξο όταν μαθαίνουν ότι η πολυαγαπημένη νονά του Ηρακλή… μετράει ώρες. Ταυτόχρονα, η Φαίδρα που ζει μόνιμα στη Γερμανία ετοιμάζ

  • 01:45 Spider-Man: Into the Spider-Verse Exclusive Movie Clip - Other Spider People (2018) | Movieclips

    Spider-Man: Into the Spider-Verse Exclusive Movie Clip - Other Spider People (2018) | Movieclips

    by Admin Προστέθηκε 9 Προβολές / 0 Likes

    Check out the official Spider-Man: Into the Spider-Verse exclusive movie clip starring Jake Johnson! Let us know what you think in the comments below. ► Buy Tickets to Spider-Man: Into the Spider-Verse: https://www.fandango.com/spider-man-into-the-spider-

  • 01:31 Shaun the Sheep Movie: Farmageddon  International Teaser Trailer #1 (2019) | Movieclips Trailers

    Shaun the Sheep Movie: Farmageddon International Teaser Trailer #1 (2019) | Movieclips Trailers

    by Admin Προστέθηκε 5 Προβολές / 0 Likes

    Check out the official Shaun the Sheep Movie: Farmageddon Teaser starring Justin Fletcher! Let us know what you think in the comments below. ► Buy Tickets to Shaun the Sheep Movie: Farmageddon: https://www.fandango.com/shaun-the-sheep-movie-farmageddon-21

  • 02:18 Bird Box Trailer #2 (2018) | Movieclips Trailers

    Bird Box Trailer #2 (2018) | Movieclips Trailers

    by Admin Προστέθηκε 4 Προβολές / 0 Likes

    Check out the official Bird Box Trailer starring Sandra Bullock! Let us know what you think in the comments below. ► Buy Tickets to Bird Box: https://www.fandango.com/bird-box-215322/movie-overview?cmp=MCYT_YouTube_Desc US Release Date: December 21, 2018

  • 02:00 King of Thieves Trailer #1 (2019) | Movieclips Trailers

    King of Thieves Trailer #1 (2019) | Movieclips Trailers

    by Admin Προστέθηκε 5 Προβολές / 0 Likes

    Check out the official King of Thieves Trailer starring Michael Caine! Let us know what you think in the comments below. ► Buy Tickets to King of Thieves: https://www.fandango.com/king-of-thieves-2018-212760/movie-overview?cmp=MCYT_YouTube_Desc US Release

  • 1:11:47 Νέο CHRISTMAS Deep House Party Live MIX by BOB DEEP   free download

    CHRISTMAS Deep House Party Live MIX by BOB DEEP free download

    by Panos Προστέθηκε 1 Προβολές / 0 Likes

    HRISTMAS Deep House Party Live MIX by BOB DEEP free downloadTRACKS LISTTRACK 01 AUDIO TITLE \"Faster\" PERFORMER \"01 Dj Marlon\" INDEX 01 00:00:00 TRACK 02 AUDIO TITLE \"Grapevine - YouTube\" PERFORMER \"02 Nayio Bitz\" INDEX 01 04:14:00 TRACK 03 AUDIO T

  • 04:24 Νέο F4TE - Sentimentos (Pete Bellis & Tommy Remix)

    F4TE - Sentimentos (Pete Bellis & Tommy Remix)

    by Panos Προστέθηκε 9 Προβολές / 0 Likes

    Stream & Download: https://fanlink.to/ddr37 Follow on Instagram: https://www.instagram.com/vdj_rossonero/???? PleaseTurn on notifications to stay updated with new uploads!Send Your Original Mixes & Official Remixes: Gmail:mimlrecords1@gmail.comp.s. Suppor

  • 03:00 Νέο Juice x Tus - International Gang - Official Video Clip

    Juice x Tus - International Gang - Official Video Clip

    by Panos Προστέθηκε 10 Προβολές / 0 Likes

    Tus Instagram : https://www.instagram.com/tusyourdaddyTus Facebook Page : http://www.facebook.com/tus.h.tusisTus Snapchat : tusyourdaddyTus YouTube Subscribe : http://goo.gl/RmSoKIJuice instagram : https://instagram.com/juice.jedan.jediniFind \"Internatio

  • 11:41 Νέο O Βασίλης Μίχας στο Πουφ

    O Βασίλης Μίχας στο Πουφ

    by Admin Προστέθηκε 6 Προβολές / 0 Likes

    Subscribe now στο #1 ελληνικό μουσικό κανάλι: http://goo.gl/mcc7g6 O Βασίλης Μίχας στο Πουφ με τον Διονύση Ατζαράκη Σκηνοθεσία - Παραγωγή: Βαγγέλης Τσαουσόπουλος Αρχισυνταξία - Επιμέλεια: Μιχάλης Παπανικολάου Το ΠΟΥΦ powered by mini PICK Crackers είναι η

  • 2:14:35 Νέο CHRISTMAS REMIX MUSIC 2018 - NONSTOP 2 HOURS

    CHRISTMAS REMIX MUSIC 2018 - NONSTOP 2 HOURS

    by Panos Προστέθηκε 7 Προβολές / 0 Likes

    oh diba ang saya! lalo na kung mapapakinggan mo ang music video na katulad nito! hahaha! mapapasayaw ka talaga at mapapaindak sa mga tugtugang walang sawa! ang music video na ito ay siguradong magbibigay saya sa ating kapwa lalo na kapag napakinggan mo it

  • 04:13 Νέο Klymaxx - Don't Hide Your Love

    Klymaxx - Don't Hide Your Love

    by Panos Προστέθηκε 5 Προβολές / 0 Likes

    Check out our website for more Unidisc content: http://geni.us/BnsAGBShop for Vinyls, CDs, Merch and More: http://geni.us/UAcik Buy/Stream • http://geni.us/jsXB2KFacebook • http://geni.us/unidiscfacebookSoundCloud • http://geni.us/unidiscsoundcloudShop •

  • 04:10 Νέο Νίκος Οικονομόπουλος - Χρόνια Πολλά / Nikos Oikonomopoulos - Xponia polla / Official Releases

    Νίκος Οικονομόπουλος - Χρόνια Πολλά / Nikos Oikonomopoulos - Xponia polla / Official Releases

    by Panos Προστέθηκε 6 Προβολές / 0 Likes

    ✅Get to the new channel on youtube ▶️ http://bit.ly/GREEK_MUSIC_SOUNDΝίκος Οικονομόπουλος - Χρόνια ΠολλάΣτίχοι: Στέλιος ΜαργωμένοςΜουσική: Πάνος Καπίρης

  • 04:04 Νέο Goin' Through - Σε μισώ - Official Audio Release

    Goin' Through - Σε μισώ - Official Audio Release

    by Admin Προστέθηκε 4 Προβολές / 0 Likes

    Subscribe now στο #1 ελληνικό μουσικό κανάλι: http://goo.gl/mcc7g6 Βρείτε τον δίσκο "Joker" εδώ: Spotify: https://spoti.fi/2QxMBCF iTunes: https://apple.co/2RVcU1X Follow Cobalt Music • https://goo.gl/noQFRV • https://www.facebook.com/CobaltMusic • https:

  • 1:31:18 Νέο Ρόδα Τσάντα και Κοπάνα (2010)

    Ρόδα Τσάντα και Κοπάνα (2010)

    by Admin Προστέθηκε 6 Προβολές / 0 Likes

    Eλληνική ταινία σε σκηνοθεσία Όμηρου Ευστρατιάδη με τους: Κώστα Βουτσά, Στηβ Ντούζο, Ελένη ΦιλίνηΈνας Ελληνοαμερικανός αγοράζει το λύκειο Χαβαλέ και προσλαμβάνει πρώην αποφοίτους που έχουν γίνει καθηγητές.

  • 2:10:59 Νέο Ρόδα Τσάντα και Κοπάνα 4 1987 DTVrip

    Ρόδα Τσάντα και Κοπάνα 4 1987 DTVrip

    by Admin Προστέθηκε 5 Προβολές / 0 Likes

    subscribe and like http://filerack.net/file/d57E9F Dowland Full Epsode Eλληνική ταινία σε σκηνοθεσία Όμηρου Ευστρατιάδη με τους: Κώστα Βουτσά, Στηβ Ντούζο, Ελένη Φιλίνη Ένας.

  • 1:30:12 Νέο Ροδα τσαντα και κοπανα 3

    Ροδα τσαντα και κοπανα 3

    by Admin Προστέθηκε 6 Προβολές / 0 Likes

    Ροδα τσαντα και κοπανα 3Υπόθεση: Οι καθηγητές του σχολείου πιστεύουν ότι γλίτωσαν από τη φουρνιά των ατίθασων μαθητών, οι οποίοι τους ταλαιπώρησαν τόσο πολύ. Όμως οι μαθητές θα επιστρέψουν στις τάξεις, αξιώνοντας να πάρουν το απολυτήριο χωρίς χατίρια. Αρχ

  • 1:15:30 Νέο Ρόδα Τσάντα και Κοπάνα No2

    Ρόδα Τσάντα και Κοπάνα No2

    by Admin Προστέθηκε 5 Προβολές / 0 Likes

  • 1:32:54 Νέο Ρόδα Τσάντα Και Κοπάνα No1  (1982) HD

    Ρόδα Τσάντα Και Κοπάνα No1 (1982) HD

    by Admin Προστέθηκε 12 Προβολές / 0 Likes

    Επιτέλους σε καλή ποιότητα!

  • 1:22:12 Κλεφτρόνι και Τζέντλεμαν (1987)

    Κλεφτρόνι και Τζέντλεμαν (1987)

    by Admin Προστέθηκε 8 Προβολές / 0 Likes

    Ο Λέων Στάθης πιστεύει ότι με το που θα πάρει το πτυ&ch

  • 1:27:41 Καμικάζι αγάπη μου (1983)

    Καμικάζι αγάπη μου (1983)

    by Admin Προστέθηκε 14 Προβολές / 0 Likes

    Ο Στάθης, η Ρένα κι ο Αλέξης είναι τρία θεότρελα αδέλφ&

  • 1:27:08 Και ο πρώτος ματάκιας - Ο περίεργος (1982)

    Και ο πρώτος ματάκιας - Ο περίεργος (1982)

    by Admin Προστέθηκε 28 Προβολές / 0 Likes

    Ένας αδιόρθωτος ηδονοβλεψίας, ο Σίμος, εργάζετα&

  • 10:24 5 παραφυσικά βίντεο που τραβήχτηκαν σε νοσοκομεία.

    5 παραφυσικά βίντεο που τραβήχτηκαν σε νοσοκομεία.

    by Panos Προστέθηκε 4 Προβολές / 0 Likes

    ►Mπλουζάκια: https://teesney.com/gloomy-gentlemen-1►Subscribe: https://www.youtube.com/channel/UCWAb0-QD2WhYtst4j1OtfrQ►Facebook: https://www.facebook.com/gloomygentlemen/► Instagram: https://www.instagram.com/gloomygentlemen/Playlists:►Top 10s: https://w

  • 01:12 ALIEN FILMED NEAR AREA 51

    ALIEN FILMED NEAR AREA 51

    by Panos Προστέθηκε 9 Προβολές / 0 Likes

    SUBSCRIBE TO OUR NEWEST CHANNEL: https://www.youtube.com/user/KennethColllins

  • 38:39 AREA 51- HORROR FILM

    AREA 51- HORROR FILM

    by Panos Προστέθηκε 8 Προβολές / 0 Likes

    https://www.youtube.com/user/KennethColllins

  • 20:36 TOP TEN REAL ALIENS CAUGHT ON TAPE - 2017

    TOP TEN REAL ALIENS CAUGHT ON TAPE - 2017

    by Panos Προστέθηκε 11 Προβολές / 0 Likes

    SUBSCRIBE FOR MORE CONTENT!

  • 54:28 TOP 20 REAL ALIENS CAUGHT ON TAPE

    TOP 20 REAL ALIENS CAUGHT ON TAPE

    by Panos Προστέθηκε 13 Προβολές / 0 Likes

    one hour of scary videos including slenderman the rake grey alien area 51 chupacabra real witches Donald trump horrifying creatures and much much morePlease subscribe fro future content and our upcoming film..

  • 03:32 Leaked Video Of Strange Alien Creature 2018

    Leaked Video Of Strange Alien Creature 2018

    by Panos Προστέθηκε 11 Προβολές / 0 Likes

    this video was recently sent to me. enjoy.alien missing 411 sasquatch demon scary real 2018 alien missing 411 sasquatch demon scary real 2018alien missing 411 sasquatch demon scary real 2018alien missing 411 sasquatch demon scary real 2018alien missing 41

  • 06:35 Someone is living in my house.. Stalker? (Raw, uncut video)

    Someone is living in my house.. Stalker? (Raw, uncut video)

    by Panos Προστέθηκε 9 Προβολές / 0 Likes

    This video is evidence and the description is provided in the video itself

  • 04:54 I got a package in my P.O. box and you'll never believe what was inside

    I got a package in my P.O. box and you'll never believe what was inside

    by Panos Προστέθηκε 6 Προβολές / 0 Likes

    Its been a while since we have uploaded anything, or I should say I... We have come across some hard times over the course of the recent months and have not been able to perform at normal capacity....please stay tunes though as we will be coming back with

RSS